Bibi Blocksberg - Mała Czarodziejka ... dodany: 03/03/2010 | Bicicleta eliptica estatica resistencia regulable sillin y pantalla LCD -FITFIU | 下载 APK

Друзья / Friends / Сезон: 5 / Серии: 1-24 (24) (David Crane, Marta Kauffman) [1998-1999, США, Ситком, HDTV 720p] (SET) 

Цитировать
Друзья
Friends
- Год выпуска: 1998-1999
Страна: США
Жанр: ситком
Продолжительность: 24 * 22мин
Перевод: Профессиональный (многоголосый, закадровый) SET-Режиссер: David Crane, Marta Kauffman
В ролях: Jennifer Aniston, Courteney Cox Arquette, Lisa Kudrow, Matt LeBlanc, Matthew Perry, David Schwimmer
Описание: Главные герои — шестеро друзей — Рейчел, Моника, Фиби, Джоуи, Чендлер и Росс. Три девушки и три парня, которые дружат, живут по соседству, вместе убивают время и противостоят жестокой реальности, делятся своими секретами и иногда очень сильно влюбляются.
Сериал признан одним из лучших комедийных сериалов в истории американского телевидения и стал одним из наиболее заметных проектов 1990-х годов. Сама постановка и творческая группа получили множество наград, в том числе шесть премий «Эмми» и премию «Золотой глобус».
-Все раздачи сериала-

Цитата:рус. звук отличного качества, записал для нас всех
с российского телеканала Sony (SET) товарищ Van4evskiy-Качество: HDTV 720p | Sample
Формат: MKV
Видео кодек: H.264
Аудио кодек: AC3

Видео: 7 854 Kbps, 1280х720 (16:9), 25.000 fps, Bits/(Pixel*Frame) : 0.209
Аудио #1: AC3, 2 channels, 48.0 KHz, 192kbps Lossy|Русский, многоголосый, закадровый SET|
Аудио #2: AC3, 2 channels, 48.0 KHz, 192 Kbps Lossy|Английский, оригинал|
Субтитры: none




Список серий
5х01 The One After Ross Says Rachel. (Эпизод, после того как Росс назвал имя Рейчел)
5х02 The One With All The Kissing. (Эпизод, где все целуются)
5х03 The One With The Triplets /The One Hundredth/. (Эпизод с тройней /Эпизод сотый)
5х04 The One Where Phoebe Hates PBS. (Эпизод, где Фиби ненавидит канал PBS)
5х05 The One With The Kips. (Эпизод со старым соседом Кипом)
5х06 The One With The Yeti. (Эпизод с чудовищем Йети)
5х07 The One Where Ross Moves In. (Эпизод, где Росс въезжает)
5х08 The One With All The Thanksgivings. (Эпизод, где все вспоминают свои Дни Благодарения)
5х09 The One With Ross's Sandwich. (Эпизод с сэндвичем Росса )
5х10 The One With The Inappropriate Sister. (Эпизод с сестренкой Дени (Йети))
5х11 The One With All The Resolutions. (Эпизод, где все дают обещания)
5х12 The One With Chandler's Work Laugh. (Эпизод с рабочим смехом Чендлера)
5х13 The One With Joey's Bag. (Эпизод с новой сумкой Джо)
5х14 The One Where Everybody Finds Out. (Эпизод, где все всё узнают)
5х15 The One With The Girl Who Hits Joey. (Эпизод с драчливой подругой Джо)
5х16 The One With The Cop. (Эпизод с полицейским)
5х17 The One With Rachel's Inadvertent Kiss. (Эпизод со случайным поцелуем)
5х18 The One Where Rachel Smokes. (Эпизод, где Рейчел курит)
5х19 The One Where Ross Can't Flirt. (Эпизод, где Росс не умеет флиртовать)
5х20 The One With The Ride-Along. (Эпизод, где парни едут на полицейский рейд)
5х21 The One With The Ball. (Эпизод с игрой в мяч)
5х22 The One With Joey's Big Break. (Эпизод, где Джо обиделся на Чендлера)
5х23 The One In Vegas, Part 1. (Эпизод в Вегасе, часть 1)
5х24 The One In Vegas, Part 2. (Эпизод в Вегасе, часть 2)

MI

General
Unique ID                        : 240933730053150512235570146322595838794 (0xB54226063542DA9092E7CBFC0B1DFB4A)
Complete name                    : D:\Сериалы\Friends S05 720p HDTV x264 rus.eng\Friends.S05E01.720p.HDTV.DD2.0.Rus.Eng-Radical.mkv
Format                           : Matroska
Format version                   : Version 2
File size                        : 1.27 GiB
Duration                         : 21mn 10s
Overall bit rate                 : 8 601 Kbps
Encoded date                     : UTC 2012-01-08 09:18:17
Writing application              : mkvmerge v4.4.0 ('Die Wiederkehr') сборка от Oct 31 2010 21:52:48
Writing library                  : libebml v1.0.0 + libmatroska v1.0.0
Video
ID                               : 1
Format                           : AVC
Format/Info                      : Advanced Video Codec
Format profile                   : High@L4.1
Format settings, CABAC           : Yes
Format settings, ReFrames        : 9 frames
Codec ID                         : V_MPEG4/ISO/AVC
Duration                         : 21mn 10s
Bit rate                         : 7 854 Kbps
Width                            : 1 280 pixels
Height                           : 720 pixels
Display aspect ratio             : 16:9
Frame rate                       : 25.000 fps
Color space                      : YUV
Chroma subsampling               : 4:2:0
Bit depth                        : 8 bits
Scan type                        : Progressive
Bits/(Pixel*Frame)               : 0.341
Stream size                      : 1.16 GiB (91%)
Writing library                  : x264 core 107 r1745 4785e8e
Encoding settings                : cabac=1 / ref=9 / deblock=1:-3:-3 / analyse=0x3:0x133 / me=tesa / subme=9 / psy=1 / psy_rd=0.90:0.00 / mixed_ref=1 / me_range=32 / chroma_me=1 / trellis=2 / 8x8dct=1 / cqm=0 / deadzone=6,6 / fast_pskip=0 / chroma_qp_offset=-2 / threads=2 / sliced_threads=0 / nr=0 / decimate=0 / interlaced=0 / constrained_intra=0 / bframes=7 / b_pyramid=2 / b_adapt=2 / b_bias=0 / direct=3 / weightb=1 / open_gop=0 / weightp=2 / keyint=250 / keyint_min=25 / scenecut=40 / intra_refresh=0 / rc_lookahead=60 / rc=crf / mbtree=0 / crf=18.5 / qcomp=0.80 / qpmin=10 / qpmax=51 / qpstep=4 / vbv_maxrate=50000 / vbv_bufsize=62500 / crf_max=0.0 / ip_ratio=1.10 / pb_ratio=1.10 / aq=1:0.60 / nal_hrd=none
Language                         : English
Audio #1
ID                               : 2
Format                           : AC-3
Format/Info                      : Audio Coding 3
Mode extension                   : CM (complete main)
Codec ID                         : A_AC3
Duration                         : 21mn 10s
Bit rate mode                    : Constant
Bit rate                         : 192 Kbps
Channel(s)                       : 2 channels
Channel positions                : Front: L R
Sampling rate                    : 48.0 KHz
Bit depth                        : 16 bits
Compression mode                 : Lossy
Stream size                      : 29.1 MiB (2%)
Language                         : Russian
Audio #2
ID                               : 3
Format                           : AC-3
Format/Info                      : Audio Coding 3
Format profile                   : Dolby Digital
Mode extension                   : CM (complete main)
Codec ID                         : A_AC3
Duration                         : 21mn 10s
Bit rate mode                    : Constant
Bit rate                         : 192 Kbps
Channel(s)                       : 2 channels
Channel positions                : Front: L R
Sampling rate                    : 48.0 KHz
Bit depth                        : 16 bits
Compression mode                 : Lossy
Stream size                      : 58.2 MiB (4%)
Language                         : English

Внимание! Раздача ведётся путём добавления новых серий

Внимание! Раздача ведётся путём добавления новых серий; при каждом добавлении создаётся новый торрент. Чтобы начать докачку новой серии, пользователям необходимо сделать следующее:
  • (1) остановить скачивание,
  • (2) удалить старый торрент у себя из клиента (старые серии удалять не надо),
  • (3) скачать новый торрент и запустить его у себя в клиенте вместо старого, при этом указать клиенту путь в старую папку куда и должно происходить скачивание новых серий.
Ваш клиент при этом должен произвести хеширование (проверку) старой папки (если не производит сам - помогите ему сделать это), и будет докачивать только те серии которых у вас ещё нет. Старые серии при этом не удаляются, а продолжают раздаваться!
Eсли вы уже удалили старые серии, то предотвратить повторную закачку старых серий можно, отжав галочку в соответствующих местах при запуске нового торрента. По возможности, желательно не удалять старые серии как можно дольше чтобы релизёр не столько продолжал раздавать старые серии, а смог сконцентрироваться на новых.
УСТРАНИЛ РАССИНХРОН В 5ОЙ СЕРИ, ПЕРЕКАЧАЙТЕ ТОРРЕНТ
Вы не можете начинать темы
Вы не можете отвечать на сообщения
Вы не можете редактировать свои сообщения
Вы не можете удалять свои сообщения
Вы не можете голосовать в опросах
Вы не можете прикреплять файлы к сообщениям
Вы можете скачивать файлы
!ВНИМАНИЕ!

Сайт не предоставляет электронные версии произведений, а занимается лишь коллекционированием и каталогизацией ссылок, присылаемых и публикуемых на форуме нашими читателями. Если вы являетесь правообладателем какого-либо представленного материала и не желаете, чтобы ссылка на него находилась в нашем каталоге, свяжитесь с нами, и мы незамедлительно удалим ее. Файлы для обмена на трекере предоставлены пользователями сайта, и администрация не несет ответственности за их содержание. Просьба не заливать файлы, защищенные авторскими правами, а также файлы нелегального содержания!

Искали программы, игры, дополнения, музыка mp3, аниме, аудио книги, журналы? Добро пожаловать на свободный торрент трекер Torrents, у нас можно скачать бесплатно, без смс и регистрации и прочих ограничений лучшие, отборные сборки программ, игр. Скачать торрентом не составит труда даже не опытному пользователю. Раздачи ежедневно обновляются, только лучшие и качественные раздачи, подробные описания и скриншоты. Огромная коллекция программ для работы со звуком, графикой, дизайном, а так же множество плагинов и инструментов к ним с подробной инструкцией и рекомендациями. Прошивки для навигаторов, карты. Разнообразные игры, для Windows, Linux. В коллекцие есть и старые игры любых жанров, Rpg, Action, Shooter, strategy Множество дополнений, модификаций, сценариев для популярных игр в жанре экш, рпг, гонки, стратегии, логические игры. Множество аддонов и сценариев для Microsoft Flight Simulator Большая коллекция книг, учебников. Если нет возможности купить печатное издание - смело скачивайте цифровую версию книги или, быть может, журнала. Не любите читать - можно загрузить бесплатно аудикнигу. Для веб дизайнеров и программистов так же найдется множество специализированного софта, таких как: редакторы с подсветкой, среды программирования, компоненты, системы управления базами данных, разнообразные скрипты и шаблоны. Не так давно у нас появился материал для автолюбителей и владельцев мото - оригинальные и неоригинальные каталоги запчастей, книги и журналы по ремонту и обслуживанию, видеоуроки, статьи по чип тюнингу, прошивкам. Процедура получения контента элементарная, достаточно просто скачать торрент файл и добавить его в загрузку в вашем торрент клиенте. Если у вас нет специального торрент клиента, вы можете его скачать у нас.