Дэн Браун - Происхождение (2017) FB2 | Tales of Vesperia | Jonathan Pryce

Друзья / Friends / Сезон: 4 / Серии: 1-24 (24) (Гари Хэлворсон, Кевин Брайт) [1997, США, мелодрама, комедия, BDRip 720p] MVO (РТР/СТС) + MVO (Ukr) + Original Eng + Subs (rus, eng) 

Цитировать
Друзья, Сезон 4 / Friends, Season Four«Everybody needs Friends!»- Год выпуска: 1997
Страна: США | NBC
Жанр: мелодрама, комедия
Продолжительность: ~00:23:00-Перевод №1: Профессиональный (многоголосый закадровый) РТР/СТС
Перевод №2: Профессиональный (многоголосый закадровый) 1+1
Субтитры: русские (by Dais), английские (SDH)-Режиссёр: Гари Хэлворсон, Кевин Брайт, Майкл Лембек
В ролях: Дженнифер Энистон (Rachel Green), Кортни Кокс (Monica Geller), Лиза Кудроу (Phoebe Buffay), Мэтт ЛеБлан (Joey Tribbiani), Мэттью Перри (Chandler Bing), Дэвид Швиммер (Dr. Ross Geller), Джеймс Майкл Тайлер (Gunther), Эллиот Гулд (Jack Geller), Кристина Пиклз (Judy Geller), Мэгги Уилер (Janice Litman), Пол Радд (Mike Hannigan), Джейн Сиббетт (Carol Willick)
Описание: Главные герои - шестеро друзей - Рейчел, Моника, Фиби, Джоуи, Чендлер и Росс. Три девушки и три парня, которые дружат, живут по соседству, вместе убивают время и противостоят жестокой реальности, делятся своими секретами и иногда очень сильно влюбляются.-
Релиз: by markinscor-Качество видео: BDRip 720p
Формат: MKV
Видео: 1280x720 at 23.976 fps, x264@L4.1, crf 17.5, ~5000-6200 kbps avg, 0.33 bpp
Аудио №1: Русский: AC3, 48 kHz, 2/0 (L, R), 256 kbps
Аудио №2: Украинский: AC3, 48 kHz, 2/0 (L, R), 192 kbps
Аудио №3: Английский: AC3, 48 kHz, 3/2 (L,C,R,l,r) + LFE ch, 640 kbps
Навигация по главам: есть- -
  • За запись ранее отсутствующих в сети в хорошем качестве дорог с Paramount Comedy спасибо Nez.
  • За работу над русскими и украинскими дорожками спасибо Volshebnik.
  • За субтитры спасибо Dais, сведение markinscor.
  • Диски приобретены в рамках сервиса "Копилка: Помоги с Blu-ray". Спонсоры: DKGraf, lawyers, IvAlien, C_Vic
    meil
    , sweeper59, ultrayozh, Shki и Dima_lost
-

MediaInfo

Общее
Уникальный идентификатор : 174163220167219667552076671064679220565 (0x83069DB846F0966FA9FE9A6A64418555)
Полное имя : L:\Friends.S04.1997.720p.BDRip.HDCLUB\Friends.S04E01.720p.BDRip.HDCLUB.mkv
Формат : Matroska
Версия формата : Version 2
Размер файла : 1,37 Гбайт
Продолжительность : 22 м.
Общий поток : 8616 Кбит/сек
Дата кодирования : UTC 2013-04-30 08:31:26
Программа кодирования : mkvmerge v5.8.0 ('No Sleep / Pillow') built on Sep 2 2012 15:37:04
Библиотека кодирования : libebml v1.2.3 + libmatroska v1.3.0
Видео
Идентификатор : 1
Формат : AVC
Формат/Информация : Advanced Video Codec
Профиль формата : High@L4.0
Параметр CABAC формата : Да
Параметр ReFrames формата : 8 кадров
Идентификатор кодека : V_MPEG4/ISO/AVC
Продолжительность : 22 м.
Битрейт : 7356 Кбит/сек
Ширина : 1280 пикселей
Высота : 720 пикселей
Соотношение сторон : 16:9
Режим частоты кадров : Постоянный
Частота кадров : 23,976 кадра/сек
Цветовое пространство : YUV
Субдискретизация насыщенности : 4:2:0
Битовая глубина : 8 бит
Тип развёртки : Прогрессивная
Бит/(Пиксели*Кадры) : 0.333
Размер потока : 1,17 Гбайт (85%)
Библиотека кодирования : x264 core 129 r2230 1cffe9f
Настройки программы : cabac=1 / ref=8 / deblock=1:-3:-3 / analyse=0x3:0x133 / me=umh / subme=10 / psy=1 / psy_rd=1.20:0.00 / mixed_ref=1 / me_range=48 / chroma_me=1 / trellis=2 / 8x8dct=1 / cqm=0 / deadzone=21,11 / fast_pskip=0 / chroma_qp_offset=-2 / threads=12 / lookahead_threads=2 / sliced_threads=0 / nr=0 / decimate=1 / interlaced=0 / bluray_compat=0 / constrained_intra=0 / bframes=7 / b_pyramid=2 / b_adapt=2 / b_bias=0 / direct=3 / weightb=1 / open_gop=0 / weightp=2 / keyint=250 / keyint_min=23 / scenecut=40 / intra_refresh=0 / rc=crf / mbtree=0 / crf=17.5 / qcomp=0.70 / qpmin=0 / qpmax=69 / qpstep=4 / ip_ratio=1.40 / pb_ratio=1.30 / aq=1:0.75
Язык : English
Default : Да
Forced : Нет
Аудио #1
Идентификатор : 2
Формат : AC-3
Формат/Информация : Audio Coding 3
Расширение режима : CM (complete main)
Параметр Endianness формата : Big
Идентификатор кодека : A_AC3
Продолжительность : 22 м.
Вид битрейта : Постоянный
Битрейт : 256 Кбит/сек
Каналы : 2 канала
Расположение каналов : Front: L R
Частота : 48,0 КГц
Битовая глубина : 16 бит
Метод сжатия : С потерями
Размер потока : 41,7 Мбайт (3%)
Заголовок : MVO РТР
Язык : Russian
Default : Да
Forced : Нет
Аудио #2
Идентификатор : 3
Формат : AC-3
Формат/Информация : Audio Coding 3
Расширение режима : CM (complete main)
Параметр Endianness формата : Big
Идентификатор кодека : A_AC3
Продолжительность : 22 м.
Вид битрейта : Постоянный
Битрейт : 192 Кбит/сек
Каналы : 2 канала
Расположение каналов : Front: L R
Частота : 48,0 КГц
Битовая глубина : 16 бит
Метод сжатия : С потерями
Размер потока : 31,3 Мбайт (2%)
Заголовок : MVO 1+1
Язык : Ukrainian
Default : Нет
Forced : Нет
Аудио #3
Идентификатор : 4
Формат : AC-3
Формат/Информация : Audio Coding 3
Расширение режима : CM (complete main)
Параметр Endianness формата : Big
Идентификатор кодека : A_AC3
Продолжительность : 22 м.
Вид битрейта : Постоянный
Битрейт : 640 Кбит/сек
Каналы : 6 каналов
Расположение каналов : Front: L C R, Side: L R, LFE
Частота : 48,0 КГц
Битовая глубина : 16 бит
Метод сжатия : С потерями
Размер потока : 104 Мбайт (7%)
Язык : English
Default : Нет
Forced : Нет
Текст #1
Идентификатор : 5
Формат : UTF-8
Идентификатор кодека : S_TEXT/UTF8
Идентификатор кодека/Информация : UTF-8 Plain Text
Заголовок : Dais
Язык : Russian
Default : Нет
Forced : Нет
Текст #2
Идентификатор : 6
Формат : UTF-8
Идентификатор кодека : S_TEXT/UTF8
Идентификатор кодека/Информация : UTF-8 Plain Text
Язык : English
Default : Нет
Forced : Нет
Меню
00:00:00.000 : en:00:00:00.000
00:02:53.382 : en:00:02:53.382
00:11:26.519 : en:00:11:26.519
00:22:04.698 : en:00:22:04.698
Вы не можете начинать темы
Вы не можете отвечать на сообщения
Вы не можете редактировать свои сообщения
Вы не можете удалять свои сообщения
Вы не можете голосовать в опросах
Вы не можете прикреплять файлы к сообщениям
Вы можете скачивать файлы
!ВНИМАНИЕ!

Сайт не предоставляет электронные версии произведений, а занимается лишь коллекционированием и каталогизацией ссылок, присылаемых и публикуемых на форуме нашими читателями. Если вы являетесь правообладателем какого-либо представленного материала и не желаете, чтобы ссылка на него находилась в нашем каталоге, свяжитесь с нами, и мы незамедлительно удалим ее. Файлы для обмена на трекере предоставлены пользователями сайта, и администрация не несет ответственности за их содержание. Просьба не заливать файлы, защищенные авторскими правами, а также файлы нелегального содержания!

Искали программы, игры, дополнения, музыка mp3, аниме, аудио книги, журналы? Добро пожаловать на свободный торрент трекер Torrents, у нас можно скачать бесплатно, без смс и регистрации и прочих ограничений лучшие, отборные сборки программ, игр. Скачать торрентом не составит труда даже не опытному пользователю. Раздачи ежедневно обновляются, только лучшие и качественные раздачи, подробные описания и скриншоты. Огромная коллекция программ для работы со звуком, графикой, дизайном, а так же множество плагинов и инструментов к ним с подробной инструкцией и рекомендациями. Прошивки для навигаторов, карты. Разнообразные игры, для Windows, Linux. В коллекцие есть и старые игры любых жанров, Rpg, Action, Shooter, strategy Множество дополнений, модификаций, сценариев для популярных игр в жанре экш, рпг, гонки, стратегии, логические игры. Множество аддонов и сценариев для Microsoft Flight Simulator Большая коллекция книг, учебников. Если нет возможности купить печатное издание - смело скачивайте цифровую версию книги или, быть может, журнала. Не любите читать - можно загрузить бесплатно аудикнигу. Для веб дизайнеров и программистов так же найдется множество специализированного софта, таких как: редакторы с подсветкой, среды программирования, компоненты, системы управления базами данных, разнообразные скрипты и шаблоны. Не так давно у нас появился материал для автолюбителей и владельцев мото - оригинальные и неоригинальные каталоги запчастей, книги и журналы по ремонту и обслуживанию, видеоуроки, статьи по чип тюнингу, прошивкам. Процедура получения контента элементарная, достаточно просто скачать торрент файл и добавить его в загрузку в вашем торрент клиенте. Если у вас нет специального торрент клиента, вы можете его скачать у нас.