Друзья / Friends / Сезон: 4 / Серии: 1-24 (24) (David Crane, Marta Kauffman) [1997-1998, США, Ситком, HDTV 720p, Rus, Eng] 

Цитировать
Друзья
Friends
- Год выпуска: 1997-1998
Страна: США
Жанр: ситком
Продолжительность: 24 * 25-30 мин
Перевод: Профессиональный (многоголосый, закадровый) SET-Режиссер: David Crane, Marta Kauffman
В ролях: Jennifer Aniston, Courteney Cox Arquette, Lisa Kudrow, Matt LeBlanc, Matthew Perry, David Schwimmer
Описание: Главные герои — шестеро друзей — Рейчел, Моника, Фиби, Джоуи, Чендлер и Росс. Три девушки и три парня, которые дружат, живут по соседству, вместе убивают время и противостоят жестокой реальности, делятся своими секретами и иногда очень сильно влюбляются.
Сериал признан одним из лучших комедийных сериалов в истории американского телевидения и стал одним из наиболее заметных проектов 1990-х годов. Сама постановка и творческая группа получили множество наград, в том числе шесть премий «Эмми» и премию «Золотой глобус».
-Все раздачи сериала-

Цитата:рус. звук отличного качества, записал для нас всех
с российского телеканала Sony (SET) товарищ Van4evskiy-Качество: HDTV 720p / Sample
Формат: MKV
Видео кодек: H.264
Аудио кодек: AC3

Видео: 6 328 Kbps, 1 280х720, 23.976 fps, Pixel*Frame) 0.286
Аудио #1: AC-3, 2 channels, 48.0 KHz, 192 kbps Lossy|Русский, многоголосый, закадровый SET|
Аудио #2: AC-3, 2 channels, 48.0 KHz, 192 Kbps Lossy|Английский, оригинал|
Субтитры: none




Список серий4х01 The One With The Jellyfish. (Эпизод с медузой)
4х02 The One With The Cat. (Эпизод с кошкой)
4х03 The One With The 'Cuffs. (Эпизод с наручниками)
4х04 The One With The Ballroom Dancing. (Эпизод с танцем для бала)
4х05 The One With Joey's New Girlfriend. (Эпизод с новой подругой Джо)
4х06 The One With The Dirty Girl. (Эпизод с грязной девушкой)
4х07 The One Where Chandler Crosses The Line. (Эпизод, где Чендлер пересекает линию)
4х08 The One With Chandler In A Box. (Эпизод с Чендлером в коробке)
4х09 The One Where They're Going To PARTY! (Эпизод, где они идут на вечеринку!)
4х10 The One With The Girl From Poughkeepsie. (Эпизод с девушкой из Погебси)
4х11 The One With Phoebe's Uterus. (Эпизод с маткой Фиби)
4х12 The One With The Embryos. (Эпизод с эмбрионами)
4х13 The One With Rachel's Crush. (Эпизод с крушением Рейчел)
4х14 The One With Joey's Dirty Day. (Эпизод с грязным днем Джо)
4х15 The One With All The Rugby. (Эпизод с регби)
4х16 The One With The Fake Party. (Эпизод с ложной вечеринкой)
4х17 The One With The Free Porn. (Эпизод с халявным порно)
4х18 The One With Rachel's New Dress. (Эпизод с новым платьем Рейчел)
4х19 The One With All The Haste. (Эпизод с поспешностью)
4х20 The One With All The Wedding Dresses. (Эпизод со свадебными платьями)
4х21 The One With The Invitation. (Эпизод с приглашениями)
4х22 The One With The Worst Best Man Ever. (Эпизод с самым плохим лучшим человеком когда-либо)
4х23 The One With Ross's Wedding, part 1. (Эпизод со свадьбой Росса, Часть 1)
4х24 The One With Ross's Wedding, part 2. (Эпизод со свадьбой Росса, Часть 2)

MI

General
Unique ID                        : 242505372041711942037319223411856873587 (0xB670D5F4F4DF27E19A98500B24EB9873)
Complete name                    : \\Corfagen\d\HD\Friends.S04.720p.Eng.Rus-Radical\Friends.S04E01.720p.HDTV.DD2.0.Rus.Eng-Radical.mkv
Format                           : Matroska
File size                        : 1.12 GiB
Duration                         : 22mn 32s
Overall bit rate                 : 7 110 Kbps
Encoded date                     : UTC 2011-12-29 13:01:20
Writing application              : mkvmerge v4.4.0 ('Die Wiederkehr') сборка от Oct 31 2010 21:52:48
Writing library                  : libebml v1.0.0 + libmatroska v1.0.0
Video
ID                               : 1
Format                           : AVC
Format/Info                      : Advanced Video Codec
Format profile                   : High@L4.1
Format settings, CABAC           : Yes
Format settings, ReFrames        : 9 frames
Codec ID                         : V_MPEG4/ISO/AVC
Duration                         : 22mn 32s
Bit rate                         : 6 328 Kbps
Width                            : 1 280 pixels
Height                           : 720 pixels
Display aspect ratio             : 16:9
Frame rate                       : 23.976 fps
Original frame rate              : 25.000 fps
Color space                      : YUV
Chroma subsampling               : 4:2:0
Bit depth                        : 8 bits
Scan type                        : Progressive
Bits/(Pixel*Frame)               : 0.286
Stream size                      : 1 020 MiB (89%)
Writing library                  : x264 core 107 r1745 4785e8e
Encoding settings                : cabac=1 / ref=9 / deblock=1:-3:-3 / analyse=0x3:0x133 / me=tesa / subme=9 / psy=1 / psy_rd=0.90:0.00 / mixed_ref=1 / me_range=32 / chroma_me=1 / trellis=2 / 8x8dct=1 / cqm=0 / deadzone=6,6 / fast_pskip=0 / chroma_qp_offset=-2 / threads=2 / sliced_threads=0 / nr=0 / decimate=0 / interlaced=0 / constrained_intra=0 / bframes=7 / b_pyramid=2 / b_adapt=2 / b_bias=0 / direct=3 / weightb=1 / open_gop=0 / weightp=2 / keyint=250 / keyint_min=25 / scenecut=40 / intra_refresh=0 / rc_lookahead=60 / rc=crf / mbtree=0 / crf=18.5 / qcomp=0.80 / qpmin=10 / qpmax=51 / qpstep=4 / vbv_maxrate=50000 / vbv_bufsize=62500 / crf_max=0.0 / ip_ratio=1.10 / pb_ratio=1.10 / aq=1:0.60 / nal_hrd=none
Language                         : English
Audio #1
ID                               : 2
Format                           : AC-3
Format/Info                      : Audio Coding 3
Mode extension                   : CM (complete main)
Codec ID                         : A_AC3
Duration                         : 22mn 32s
Bit rate mode                    : Constant
Bit rate                         : 192 Kbps
Channel(s)                       : 2 channels
Channel positions                : Front: L R
Sampling rate                    : 48.0 KHz
Bit depth                        : 16 bits
Compression mode                 : Lossy
Stream size                      : 31.0 MiB (3%)
Language                         : Russian
Audio #2
ID                               : 3
Format                           : AC-3
Format/Info                      : Audio Coding 3
Mode extension                   : CM (complete main)
Codec ID                         : A_AC3
Duration                         : 22mn 32s
Bit rate mode                    : Constant
Bit rate                         : 192 Kbps
Channel(s)                       : 2 channels
Channel positions                : Front: L R
Sampling rate                    : 48.0 KHz
Bit depth                        : 16 bits
Compression mode                 : Lossy
Stream size                      : 72.2 MiB (6%)
Language                         : English

Внимание! Раздача ведётся путём добавления новых серий

Внимание! Раздача ведётся путём добавления новых серий; при каждом добавлении создаётся новый торрент. Чтобы начать докачку новой серии, пользователям необходимо сделать следующее:
  • (1) остановить скачивание,
  • (2) удалить старый торрент у себя из клиента (старые серии удалять не надо),
  • (3) скачать новый торрент и запустить его у себя в клиенте вместо старого, при этом указать клиенту путь в старую папку куда и должно происходить скачивание новых серий.
Ваш клиент при этом должен произвести хеширование (проверку) старой папки (если не производит сам - помогите ему сделать это), и будет докачивать только те серии которых у вас ещё нет. Старые серии при этом не удаляются, а продолжают раздаваться!
Eсли вы уже удалили старые серии, то предотвратить повторную закачку старых серий можно, отжав галочку в соответствующих местах при запуске нового торрента. По возможности, желательно не удалять старые серии как можно дольше чтобы релизёр не столько продолжал раздавать старые серии, а смог сконцентрироваться на новых.
Вы не можете начинать темы
Вы не можете отвечать на сообщения
Вы не можете редактировать свои сообщения
Вы не можете удалять свои сообщения
Вы не можете голосовать в опросах
Вы не можете прикреплять файлы к сообщениям
Вы можете скачивать файлы
!ВНИМАНИЕ!

Сайт не предоставляет электронные версии произведений, а занимается лишь коллекционированием и каталогизацией ссылок, присылаемых и публикуемых на форуме нашими читателями. Если вы являетесь правообладателем какого-либо представленного материала и не желаете, чтобы ссылка на него находилась в нашем каталоге, свяжитесь с нами, и мы незамедлительно удалим ее. Файлы для обмена на трекере предоставлены пользователями сайта, и администрация не несет ответственности за их содержание. Просьба не заливать файлы, защищенные авторскими правами, а также файлы нелегального содержания!

Искали программы, игры, дополнения, музыка mp3, аниме, аудио книги, журналы? Добро пожаловать на свободный торрент трекер Torrents, у нас можно скачать бесплатно, без смс и регистрации и прочих ограничений лучшие, отборные сборки программ, игр. Скачать торрентом не составит труда даже не опытному пользователю. Раздачи ежедневно обновляются, только лучшие и качественные раздачи, подробные описания и скриншоты. Огромная коллекция программ для работы со звуком, графикой, дизайном, а так же множество плагинов и инструментов к ним с подробной инструкцией и рекомендациями. Прошивки для навигаторов, карты. Разнообразные игры, для Windows, Linux. В коллекцие есть и старые игры любых жанров, Rpg, Action, Shooter, strategy Множество дополнений, модификаций, сценариев для популярных игр в жанре экш, рпг, гонки, стратегии, логические игры. Множество аддонов и сценариев для Microsoft Flight Simulator Большая коллекция книг, учебников. Если нет возможности купить печатное издание - смело скачивайте цифровую версию книги или, быть может, журнала. Не любите читать - можно загрузить бесплатно аудикнигу. Для веб дизайнеров и программистов так же найдется множество специализированного софта, таких как: редакторы с подсветкой, среды программирования, компоненты, системы управления базами данных, разнообразные скрипты и шаблоны. Не так давно у нас появился материал для автолюбителей и владельцев мото - оригинальные и неоригинальные каталоги запчастей, книги и журналы по ремонту и обслуживанию, видеоуроки, статьи по чип тюнингу, прошивкам. Процедура получения контента элементарная, достаточно просто скачать торрент файл и добавить его в загрузку в вашем торрент клиенте. Если у вас нет специального торрент клиента, вы можете его скачать у нас.

Baixar APK | Watch Movie | Super Smash Bros. Ultimate - Trailer: Mitreißende Geschichte & eine riesige Karte