Друзья / Friends / Сезон: 3 / Серии: 1-25 (25) (David Crane, Marta Kauffman) [1996-1997, США, Ситком, HDTV 720p, Rus, Eng] 

Цитировать
Друзья - Третий сезон
Friends - Season Three
- Год выпуска: 1996-1997
Страна: США
Жанр: ситком

Продолжительность: 24 * 25-30 мин
Перевод: Профессиональный (многоголосый, закадровый) SET-Режиссер: David Crane, Marta Kauffman
В ролях: Jennifer Aniston, Courteney Cox Arquette, Lisa Kudrow, Matt LeBlanc, Matthew Perry, David Schwimmer
Описание:
"Друзья" - комедийный сериал, который за свою недолгую историю на телевидении получили огромное количество наград ("Эмми" и "Золотой глобус") и покорил миллионы зрительских сердец во всем мире. Созданная Дэвидом Крейном и Мартой Коуффман, эта ансамблевая комедия стала самой популярной новой комедией ситуаций сезона 1994-95 гг., занимая 8 место в рейтинге Нельсона. Герои - шестеро молодых людей, живущие в Нью-Йорке и встречающиеся в соседнем кафе.
Шесть героев - три очаровательные девушки, и трое симпатичных молодых людей - закадычные друзья. И вокруг этой крепкой компании строится бесконечное количество разных историй: у друзей случаются романы, они ссорятся и мирятся. Но молодежь не может быть до конца серьезной, так что друзья не упускают случая пошутить, а чувство юмора у них отменное.
-Все раздачи сериала-Качество: HDTV (TvR)
Формат: MKV
Видео кодек: x264
Аудио кодек: AC3, MP3

Видео: 5 100 Kbps, 1 280х720 (16:9), 25.000 fps, Bits/(Pixel*Frame) : 0.209
Аудио #1: MP3, 2 channels, 48.0 KHz, 192kbps Lossy|Русский, многоголосый, закадровый|
Аудио #2: AC-3, 2 channels, 48.0 KHz, 384 Kbps Lossy|Английский, оригинал|
Субтитры: none

Список серий

3х01 The One With The Princess Leia Fantasy. (Эпизод с фантазией о принцессе Лейе)
3х02 The One Where No One's Ready. (Эпизод, где никто не готов)
3х03 The One With The Jam. (Эпизод с джемом)
3х04 The One With The Metaphorical Tunnel. (Эпизод с метафорическим туннелем)
3х05 The One With Frank, Jr. (Эпизод с Фрэнком младшим)
3х06 The One With The Flashback. (Эпизод с ретроспективным кадром)
3х07 The One With The Racecar Bed. (Эпизод с кроватью в виде гоночного автомобиля)
3х08 The One With The Giant Poking Device. (Эпизод с гигантским тыкающим устройством)
3х09 The One With The Football. (Эпизод с футболом)
3х10 The One Where Rachel Quits. (Эпизод, где Рейчел увольняется)
3х11 The One where Сhandler can't remember which sister. (Эпизод, где Чендлер не помнит какая сестра)
3х12 The One With All The Jealousy. (Эпизод со всей ревностью)
3х13 The One Where Monica and Richard Are Just Friends. (Эпизод, где Моника и Ричард просто друзья)
3х14 The One With Phoebe's Ex-Partner. (Эпизод с экс-партнером Фиби)
3х15 The One Where Ross And Rachel Take A Break. (Эпизод, где Росс и Рейчел делают перерыв)
3х16 The One The Morning After. (Эпизод, где утро после)
3х17 The One Without The Ski Trip. (Эпизод с лыжной поездкой)
3х18 The One With The Hypnosis Tape. (Эпизод с кассетой гипноза)
3х19 The One With The Tiny T-Shirt. (Эпизод с крошечной футболкой)
3х20 The One With The Dollhouse. (Эпизод с кукольным домиком)
3х21 The One With a Chick. And a Duck. (Эпизод с цыпленком и уткой)
3х22 The One With The Screamer. (Эпизод с крикуном)
3х23 The One With Ross's Thing. (Эпизод с штучкой Росса)
3х24 The One With The Ultimate Fighting Champion. (Эпизод с чемпионом по боям без правил)
3х25 The One At The Beach. (Эпизод на пляже)

MI

General
Unique ID                        : 253144439240261986984731221574199232049 (0xBE71D877DA109B27AAFDED4F07DF4631)
Complete name                    : D:\Сериалы\Friends S03 720p HDTV x264 rus.eng\Friends.720p.s03e01.TvR.mkv
Format                           : Matroska
File size                        : 856 MiB
Duration                         : 21mn 46s
Overall bit rate                 : 5 499 Kbps
Encoded date                     : UTC 2011-03-19 17:17:21
Writing application              : mkvmerge v4.4.0 ('Die Wiederkehr') сборка от Oct 31 2010 21:52:48
Writing library                  : libebml v1.0.0 + libmatroska v1.0.0
Video
ID                               : 1
Format                           : AVC
Format/Info                      : Advanced Video Codec
Format profile                   : High@L4.1
Format settings, CABAC           : Yes
Format settings, ReFrames        : 9 frames
Codec ID                         : V_MPEG4/ISO/AVC
Duration                         : 21mn 46s
Bit rate                         : 4 957 Kbps
Width                            : 1 280 pixels
Height                           : 720 pixels
Display aspect ratio             : 16:9
Frame rate                       : 25.000 fps
Color space                      : YUV
Chroma subsampling               : 4:2:0
Bit depth                        : 8 bits
Scan type                        : Progressive
Bits/(Pixel*Frame)               : 0.215
Stream size                      : 750 MiB (88%)
Title                            : Friends - S03E01 - Phantasien
Writing library                  : x264 core 104 r1677 19df41a
Encoding settings                : cabac=1 / ref=9 / deblock=1:-1:-1 / analyse=0x3:0x113 / me=umh / subme=9 / psy=1 / psy_rd=1.20:0.00 / mixed_ref=1 / me_range=24 / chroma_me=1 / trellis=2 / 8x8dct=1 / cqm=0 / deadzone=21,11 / fast_pskip=1 / chroma_qp_offset=-2 / threads=12 / sliced_threads=0 / nr=0 / decimate=0 / interlaced=0 / constrained_intra=0 / bframes=5 / b_pyramid=2 / b_adapt=2 / b_bias=0 / direct=3 / weightb=1 / open_gop=0 / weightp=2 / keyint=250 / keyint_min=25 / scenecut=40 / intra_refresh=0 / rc_lookahead=50 / rc=2pass / mbtree=1 / bitrate=4957 / ratetol=1.0 / qcomp=0.80 / qpmin=10 / qpmax=51 / qpstep=4 / cplxblur=20.0 / qblur=0.5 / ip_ratio=1.20 / aq=1:0.60
Language                         : German
Audio #1
ID                               : 2
Format                           : MPEG Audio
Format version                   : Version 1
Format profile                   : Layer 3
Codec ID                         : A_MPEG/L3
Codec ID/Hint                    : MP3
Duration                         : 21mn 46s
Bit rate mode                    : Constant
Bit rate                         : 192 Kbps
Channel(s)                       : 2 channels
Sampling rate                    : 44.1 KHz
Compression mode                 : Lossy
Stream size                      : 29.9 MiB (3%)
Language                         : Russian
Audio #2
ID                               : 3
Format                           : AC-3
Format/Info                      : Audio Coding 3
Mode extension                   : CM (complete main)
Codec ID                         : A_AC3
Duration                         : 21mn 46s
Bit rate mode                    : Constant
Bit rate                         : 384 Kbps
Channel(s)                       : 2 channels
Channel positions                : Front: L R
Sampling rate                    : 48.0 KHz
Bit depth                        : 16 bits
Compression mode                 : Lossy
Stream size                      : 59.8 MiB (7%)
Title                            : AC3 2.0 @ 384 kbps
Language                         : English
Вы не можете начинать темы
Вы не можете отвечать на сообщения
Вы не можете редактировать свои сообщения
Вы не можете удалять свои сообщения
Вы не можете голосовать в опросах
Вы не можете прикреплять файлы к сообщениям
Вы можете скачивать файлы
!ВНИМАНИЕ!

Сайт не предоставляет электронные версии произведений, а занимается лишь коллекционированием и каталогизацией ссылок, присылаемых и публикуемых на форуме нашими читателями. Если вы являетесь правообладателем какого-либо представленного материала и не желаете, чтобы ссылка на него находилась в нашем каталоге, свяжитесь с нами, и мы незамедлительно удалим ее. Файлы для обмена на трекере предоставлены пользователями сайта, и администрация не несет ответственности за их содержание. Просьба не заливать файлы, защищенные авторскими правами, а также файлы нелегального содержания!

Искали программы, игры, дополнения, музыка mp3, аниме, аудио книги, журналы? Добро пожаловать на свободный торрент трекер Torrents, у нас можно скачать бесплатно, без смс и регистрации и прочих ограничений лучшие, отборные сборки программ, игр. Скачать торрентом не составит труда даже не опытному пользователю. Раздачи ежедневно обновляются, только лучшие и качественные раздачи, подробные описания и скриншоты. Огромная коллекция программ для работы со звуком, графикой, дизайном, а так же множество плагинов и инструментов к ним с подробной инструкцией и рекомендациями. Прошивки для навигаторов, карты. Разнообразные игры, для Windows, Linux. В коллекцие есть и старые игры любых жанров, Rpg, Action, Shooter, strategy Множество дополнений, модификаций, сценариев для популярных игр в жанре экш, рпг, гонки, стратегии, логические игры. Множество аддонов и сценариев для Microsoft Flight Simulator Большая коллекция книг, учебников. Если нет возможности купить печатное издание - смело скачивайте цифровую версию книги или, быть может, журнала. Не любите читать - можно загрузить бесплатно аудикнигу. Для веб дизайнеров и программистов так же найдется множество специализированного софта, таких как: редакторы с подсветкой, среды программирования, компоненты, системы управления базами данных, разнообразные скрипты и шаблоны. Не так давно у нас появился материал для автолюбителей и владельцев мото - оригинальные и неоригинальные каталоги запчастей, книги и журналы по ремонту и обслуживанию, видеоуроки, статьи по чип тюнингу, прошивкам. Процедура получения контента элементарная, достаточно просто скачать торрент файл и добавить его в загрузку в вашем торрент клиенте. Если у вас нет специального торрент клиента, вы можете его скачать у нас.

1x875 Acacias 38 | Filme für Jugendliche und Erwachsene | Internship Experience @ All India Reporter (AIR), Nagpur: Friendly Environment, Make Head Notes and Case Notes