Друзья / Friends / Сезон: 6 / Серии: 1-25 из 25 (David Crane, Marta Kauffman) [1999 - 2000, США, Комедия, BDRip 1080p] MVO (Студия "Нота" СТС) + MVO (1+1, Укр) + Original + Subs (Eng) 

Цитировать
Друзья / Friends
Год выпуска: 1999 - 2000
Страна: США
Жанр: Комедия
Продолжительность: 25 серий по ~22 минуты, общее время - 09:10:02, телевизионная версия
Перевод: Профессиональный (многоголосый закадровый) Студия "Нота" СТС
Перевод 2: Профессиональный (многоголосый закадровый) 1+1
Русские субтитры: нет
Режиссёр: David Crane, Marta Kauffman
В ролях: Jennifer Aniston, Courteney Cox Arquette, Lisa Kudrow, Matt LeBlanc, Matthew Perry, David Schwimmer
Описание: Веселые и обаятельные герои "Друзей" - простые американские ребята. Ветреная Рейчел, красотка Моника, известная своими неудачными романами, весельчак Чандлер, сентиментальная Фиби, красавчик Джоуи, мечтающий стать знаменитым актером, добродушный интеллектуал Росс. Они влюбляются, ищут работу, ссорятся, женятся, разводятся, у них вечно не хватает денег. Приключения "великолепной шестерки" продолжаются, кое-кого из них ожидают большие перемены в личной жизни. Завоюет ли сердце Рейчел влюбленный Росс? Повезет ли Монике с очередным "избранником"?
Шестеро молодых людей, снимающие уютную квартиру в самом веселом богемном районе Нью-Йорка - "Вест Вилледж", завоевали всеобщую любовь сначала в Соединенных Штатах, а потом и за их пределами по обе стороны Атлантического океана. Их шутки становятся культовыми, поклонники подражают им во всем - манера одеваться, стрижки, любимые словечки. "Друзья" получили тридцать три номинации на "Эмми", из которых четыре - за "Лучший комедийный телесериал", и три номинации на "Золотой глобус".
Ссылка на предыдущие и альтернативные раздачи: http://rutracker.org/forum/tracker.php?f=2392,84&nm=Friends%20-benefits
Сэмпл: http://multi-up.com/812383
Качество: BDRip 1080p
Формат: MKV
Видео кодек: H.264
Аудио кодек: AC3
Видео: H.264, 1920x1080, 23.976 fps, 10 000 Kbps, Bits/(Pixel*Frame): 0.201
Аудио: RUSSIAN - Dolby AC3 48000Hz stereo 192 kbps
Аудио 2: Ukrainian: - Dolby AC3 48000Hz stereo 192 kbps
Аудио 3: ENGLISH - Dolby AC3 48000Hz 5.1 channels 640 Kbps
Субтитры: Eng SRT UTF-8 [Subtitle]
Русские субтитры для 6 сезона.
За набивку субтитров по переводу РТР-СТС огромное спасибо vit1811.

Другие раздачи Друзей в формате BDRip 1080p

Друзья / Friends / Сезон: 01 / Серии: 01-24 из 24 (David Crane, Marta Kauffman) [1994 - 1995, Комедия, BDRip 1080p] MVO (Студия "Нота" РТР-СТС) + MVO (1+1, Укр.) + Original + Subs (Rus, Eng)
Друзья / Friends / Сезон: 02 / Серии: 01-24 из 24 (David Crane, Marta Kauffman) [1995 - 1996, Комедия, BDRip 1080p] MVO (Студия "Нота" СТС) + MVO (1+1, Укр) + Original + Subs (Rus, Eng)
Друзья / Friends / Сезон: 03 / Серии: 01-25 из 25 (David Crane, Marta Kauffman) [1996 - 1997, Комедия, BDRip 1080p] MVO (Студия "Нота" СТС) + MVO (1+1, Укр) + Original + Subs (Rus, Eng)
Друзья / Friends / Сезон: 04 / Серии: 01-24 из 24 (David Crane, Marta Kauffman) [1997 - 1998, Комедия, BDRip 1080p] MVO (Студия "Нота" СТС) + MVO (1+1, Укр) + Original + Subs (Rus, Eng)
Друзья / Friends / Сезон: 05 / Серии: 01-24 из 24 (David Crane, Marta Kauffman) [1998 - 1999, Комедия, BDRip 1080p] MVO (Студия "Нота" СТС) + MVO (1+1, Укр) + Original + Subs (Eng)
Друзья / Friends / Сезон: 06 / Серии: 01-25 из 25 (David Crane, Marta Kauffman) [1999 - 2000, Комедия, BDRip 1080p] MVO (Студия "Нота" СТС) + MVO (1+1, Укр) + Original + Subs (Eng)
Друзья / Friends / Сезон: 07 / Серии: 01-24 из 24 (David Crane, Marta Kauffman) [2000 - 2001, Комедия, BDRip 1080p] MVO (Студия "Нота" СТС) + MVO (1+1, Укр) + Original + Subs (Eng)
Друзья / Friends / Сезон: 08 / Серии: 01-24 из 24 (David Crane, Marta Kauffman) [2001 - 2002, Комедия, BDRip 1080p] MVO (Студия "Нота" СТС) + MVO (1+1, Укр) + Original + Subs (Eng)
Друзья / Friends / Сезон: 09 / Серии: 01-24 из 24 (David Crane, Marta Kauffman) [2002 - 2003, Комедия, BDRip 1080p] MVO (Студия "Нота" СТС) + MVO (1+1, Укр) + Original + Subs (Eng)
Друзья / Friends / Сезон: 10 / Серии: 01-18 из 18 (David Crane, Marta Kauffman) [2003 - 2004, Комедия, BDRip 1080p] MVO (Студия "Нота" СТС) + MVO (1+1, Укр) + Original + Subs (Eng)

MediaInfo

General
Unique ID : 241526504074082635717393371979202028407 (0xB5B4500A384F024887483038C8E1E377)
Complete name : I:\1 VIDEO\Friends\Friends.S06.BDRip.1080p.Rus.Ukr.Eng\Friends.S06E01.The.One.After.Vegas.1999.BDRip.1080p.Rus.Ukr.Eng.mkv
Format : Matroska
Format version : Version 4 / Version 2
File size : 1.70 GiB
Duration : 22mn 10s
Overall bit rate : 11.0 Mbps
Encoded date : UTC 2010-02-22 21:41:31
Writing application : mkvmerge v5.9.0 ('On The Loose') built on Dec 9 2012 15:37:01
Writing library : libebml v1.3.0 + libmatroska v1.4.0
Video
ID : 1
Format : AVC
Format/Info : Advanced Video Codec
Format profile : High@L4.1
Format settings, CABAC : Yes
Format settings, ReFrames : 4 frames
Codec ID : V_MPEG4/ISO/AVC
Duration : 22mn 10s
Bit rate : 10 000 Kbps
Width : 1 920 pixels
Height : 1 080 pixels
Display aspect ratio : 16:9
Frame rate : 23.976 fps
Color space : YUV
Chroma subsampling : 4:2:0
Bit depth : 8 bits
Scan type : Progressive
Bits/(Pixel*Frame) : 0.201
Stream size : 1.51 GiB (89%)
Writing library : x264 core 125 r2200 999b753
Encoding settings : cabac=1 / ref=4 / deblock=1:-2:-2 / analyse=0x3:0x113 / me=umh / subme=11 / psy=1 / psy_rd=1.00:0.00 / mixed_ref=1 / me_range=48 / chroma_me=1 / trellis=2 / 8x8dct=1 / cqm=0 / deadzone=21,11 / fast_pskip=0 / chroma_qp_offset=-2 / threads=12 / lookahead_threads=2 / sliced_threads=0 / nr=0 / decimate=0 / interlaced=0 / bluray_compat=0 / constrained_intra=0 / bframes=8 / b_pyramid=2 / b_adapt=2 / b_bias=0 / direct=2 / weightb=1 / open_gop=0 / weightp=2 / keyint=240 / keyint_min=23 / scenecut=40 / intra_refresh=0 / rc_lookahead=240 / rc=2pass / mbtree=1 / bitrate=10000 / ratetol=10.0 / qcomp=0.60 / qpmin=0 / qpmax=69 / qpstep=4 / cplxblur=20.0 / qblur=0.5 / ip_ratio=1.40 / aq=1:1.00
Language : English
Default : Yes
Forced : No
Audio #1
ID : 2
Format : AC-3
Format/Info : Audio Coding 3
Mode extension : CM (complete main)
Codec ID : A_AC3
Duration : 22mn 10s
Bit rate mode : Constant
Bit rate : 192 Kbps
Channel(s) : 2 channels
Channel positions : Front: L R
Sampling rate : 48.0 KHz
Bit depth : 16 bits
Compression mode : Lossy
Stream size : 30.5 MiB (2%)
Language : Russian
Default : No
Forced : No
Audio #2
ID : 3
Format : AC-3
Format/Info : Audio Coding 3
Mode extension : CM (complete main)
Codec ID : A_AC3
Duration : 22mn 10s
Bit rate mode : Constant
Bit rate : 192 Kbps
Channel(s) : 2 channels
Channel positions : Front: L R
Sampling rate : 48.0 KHz
Bit depth : 16 bits
Compression mode : Lossy
Stream size : 30.5 MiB (2%)
Title : AC3 2.0 @ 192 kbps 1+1
Language : Ukrainian
Default : No
Forced : No
Audio #3
ID : 4
Format : AC-3
Format/Info : Audio Coding 3
Mode extension : CM (complete main)
Codec ID : A_AC3
Duration : 22mn 10s
Bit rate mode : Constant
Bit rate : 640 Kbps
Channel(s) : 6 channels
Channel positions : Front: L C R, Side: L R, LFE
Sampling rate : 48.0 KHz
Bit depth : 16 bits
Compression mode : Lossy
Stream size : 102 MiB (6%)
Title : AC3 5.1 @ 640 kbps
Language : English
Default : No
Forced : No
Text
ID : 5
Format : UTF-8
Codec ID : S_TEXT/UTF8
Codec ID/Info : UTF-8 Plain Text
Language : English
Default : Yes
Forced : No

Скриншоты

Доп. информация:
В качестве видеоматериала использованы оригинальные Blu-Ray диски, заказанные smak2001.
Автор рипа Tenax555.
Запись украинской звуковой дорожки slavik_v_z.
Сведение украинской звуковой дорожки fox-butch, karvai0, Jatx_11, ratbol, smak2001.
Редактирование субтитров Jatx_11, ra2sv.
Вы не можете начинать темы
Вы не можете отвечать на сообщения
Вы не можете редактировать свои сообщения
Вы не можете удалять свои сообщения
Вы не можете голосовать в опросах
Вы не можете прикреплять файлы к сообщениям
Вы можете скачивать файлы
!ВНИМАНИЕ!

Сайт не предоставляет электронные версии произведений, а занимается лишь коллекционированием и каталогизацией ссылок, присылаемых и публикуемых на форуме нашими читателями. Если вы являетесь правообладателем какого-либо представленного материала и не желаете, чтобы ссылка на него находилась в нашем каталоге, свяжитесь с нами, и мы незамедлительно удалим ее. Файлы для обмена на трекере предоставлены пользователями сайта, и администрация не несет ответственности за их содержание. Просьба не заливать файлы, защищенные авторскими правами, а также файлы нелегального содержания!

Искали программы, игры, дополнения, музыка mp3, аниме, аудио книги, журналы? Добро пожаловать на свободный торрент трекер Torrents, у нас можно скачать бесплатно, без смс и регистрации и прочих ограничений лучшие, отборные сборки программ, игр. Скачать торрентом не составит труда даже не опытному пользователю. Раздачи ежедневно обновляются, только лучшие и качественные раздачи, подробные описания и скриншоты. Огромная коллекция программ для работы со звуком, графикой, дизайном, а так же множество плагинов и инструментов к ним с подробной инструкцией и рекомендациями. Прошивки для навигаторов, карты. Разнообразные игры, для Windows, Linux. В коллекцие есть и старые игры любых жанров, Rpg, Action, Shooter, strategy Множество дополнений, модификаций, сценариев для популярных игр в жанре экш, рпг, гонки, стратегии, логические игры. Множество аддонов и сценариев для Microsoft Flight Simulator Большая коллекция книг, учебников. Если нет возможности купить печатное издание - смело скачивайте цифровую версию книги или, быть может, журнала. Не любите читать - можно загрузить бесплатно аудикнигу. Для веб дизайнеров и программистов так же найдется множество специализированного софта, таких как: редакторы с подсветкой, среды программирования, компоненты, системы управления базами данных, разнообразные скрипты и шаблоны. Не так давно у нас появился материал для автолюбителей и владельцев мото - оригинальные и неоригинальные каталоги запчастей, книги и журналы по ремонту и обслуживанию, видеоуроки, статьи по чип тюнингу, прошивкам. Процедура получения контента элементарная, достаточно просто скачать торрент файл и добавить его в загрузку в вашем торрент клиенте. Если у вас нет специального торрент клиента, вы можете его скачать у нас.

Byron Mann | 2036 Origin Unknown FRENCH DVDRIP 2018 | Star Wars: Pedro Pascal è il protagonista di The Mandalorian La serie live-action è attesa sul prossimo servizio di video in streaming Disney+. 54 Share